5xk
» » Randy Edelman - You're The One

Randy Edelman - You're The One Scaricare

Randy Edelman - You're The One Scaricare
Interprete:
Randy Edelman
Album:
You're The One
Rilasciato:
21 Feb 2001
Paese:
Japan
Etichetta:
Arista
Catalogo:
BVCM-37200
Dimensione FLAC:
1290 mb
Dimensione MP3:
1768 mb
Dimensione WMA:
1754 mb


Tracklist


1A Potato In The Rain
Written-By – R. Edelman
2Don't Let Go Of Me
Written-By – R. Edelman
3If This Is Love
Written-By – K. Chater, R, Patton
4All Along The Rhine
Written-By – R. Edelman
5My Heart Got In The Way
Written-By – R. Edelman
6You're The One
Written-By – R. Edelman
7Night Music
Written-By – D. Ellingson
8You Can Always Buy Her Pearls
Written-By – R. Edelman
9Time Changes People
Written-By – B. Edelman, R. Edelman
10Thirty Years Old
Written-By – R. Edelman


Versioni


CategoryArtistTitle (Format)LabelCategoryCountryYear
AB 4210Randy Edelman You're The One ‎(LP, Album, San)AristaAB 4210US1979
BT 581Randy Edelman You're The One ‎(LP)20th Century Fox RecordsBT 581UK1979
6370 286Randy Edelman You're The One ‎(LP, Album)20th Century Fox Records6370 286Netherlands1979
AB-4210Randy Edelman You're The One ‎(LP, Album, TP)AristaAB-4210US1979
VSCD-2508Randy Edelman You're The One ‎(CD, Album, RE, pap)AristaVSCD-2508Japan2011


Crediti


  • ProducerFred Mollin, Matthew McCauley


Codici a barre


  • Barcode: 4988017600467


Aziende


  • Manufactured By – BMG Funhouse, Inc.


Video



Album


Sixth studio album by composersingerproducer Randy Edelman, originally released in 1979. You're the One. Hello We have detected Русский as your language preference. To change your preferred language, please choose a language using the dropdown. English Deutsch Español Français Italiano 日本語 한국어 Português Brasil Русский. Altre immagini. Randy Edelman: Bridge At Lacrosse, Garden Scene, The Courier и другие песни. Randy Edelman. Solo albums. Randy Edelman MGM Records, 1972 LP. You're the One Arista Records, 1979 LP and CD. Up-Town Up-Tempo: The. Up-Town Up-Tempo Woman compilation album Warwick Reflection Edelman: все альбомы, включая Backdraft 2 , The Boy Next Door , The Pacific Flow To Abbey Road и другие. 2019 Original Motion Picture Soundtrack. The Boy Next Door. Randy Edelman, Nathan Barr. 2015 Original Motion Picture Soundtrack. The Pacific Flow To Abbey Road. The Indian in the Cupboard. 2009 Instrumental. Leap Year. The Mummy: Tomb Of The Dragon Emperor. 27 Dresses. 2008 Original Motion Picture Soundtrack. Balls Of Fury. 2007 Original Motion Picture Score. Jeff Beal. Dinotopia Main Theme. Randy Edelman born June 10, 1947 is a notable film and television score composer born in Paterson, New Jersey. Edelman has composed many memorable soundtracks of the last twenty years, including Gettysburg, Last of the Mohicans and Dragonheart. Edelman attended the Cincinnati Music Conservatory, before heading to New York where he played piano in Broadway pit orchestras. He produced several solo albums of songs some of which were later recorded by The Carpenters I Can't Make Music, Barry Manilow, Olivia Newton-John and others read more. This item:You're The One by Randy Edelman Audio CD . Only 2 left in stock more on the way. Ships from and sold by . If Love Is Real by Randy Edelman Audio CD . The subsequent album On Time flopped completely and I'm not convinced his last solo lp Switch of the Seasons ever existed. The production on this set of mostly love songs is stellar, the session musicians are real pros and the songwriting is good - but not great, like on his first 3 lps. One of his strengths is when he departs from ordinary subject matter, which he does here with the 30 year old that finally leaves home, and the peculiar Potato In the Rain. Lucrative Luncheon - Randy Edelman. Лента с персональными рекомендациями и музыкальными новинками, радио, подборки на любой вкус, удобное управление своей коллекцией. Встречается в альбомах. The Distinguished Gentleman. 1992 Original Motion Picture Soundtrack. Похожие треки. Watch music video Randy Edelman ft. Trevor Jones - Promentory online. Update music video. Send translation. Similar songs. Randy Edelman ft. Trevor Jones - Cora. Trevor Jones - Parlay. Trevor Jones - Logo. Update Required To play the media you will need to either update your browser to a recent version or update your Flash plugin

  • asAS
foobar2000 1.4.4 / Dynamic Range Meter 1.1.1
log date: 2020-02-03 20:55:30

--------------------------------------------------------------------------------
Analyzed: Randy Edelman / You're The One [JP 1979/2001 CD]
--------------------------------------------------------------------------------

DR Peak RMS Duration Track
--------------------------------------------------------------------------------
DR10 0.00 dB -11.45 dB 3:42 01-Don't Let Go Of Me
DR10 -0.03 dB -13.35 dB 3:35 02-You Can Always Buy Her Pearls
DR10 0.00 dB -13.26 dB 3:40 03-If This Is Love
DR12 -1.01 dB -16.38 dB 4:02 04-Thirty Years Old (Mom)
DR11 0.00 dB -13.90 dB 3:48 05-Night Music
DR11 0.00 dB -13.63 dB 4:14 06-You're The One
DR11 0.00 dB -14.06 dB 4:08 07-Time Changes People
DR14 0.00 dB -17.24 dB 5:57 08-A Potato In The Rain
DR13 -0.39 dB -16.63 dB 3:51 09-My Heart Got In The Way
DR14 -0.09 dB -19.63 dB 4:40 10-All Along The Rhine
--------------------------------------------------------------------------------

Number of tracks: 10
Official DR value: DR12

Samplerate: 44100 Hz
Channels: 2
Bits per sample: 16
Bitrate: 747 kbps
Codec: ALAC
================================================================================